Zone Telechargement

Dernières actualités du site :

27/02 - Scandale New!
03/12 - NCIS : Nouvelle-Orléans Saison 5 Episode 15 New!
27/02 - Scandale New!

Membre

Partenaires

Avengers: Endgame

Avengers: Endgame
Qualité Blu-Ray 3D MULTI

Avengers: Endgame
Télécharger Avengers: Endgame en HD



Origine du film :U.S.A.
Réalisateur(s) :Joe Russo, Anthony Russo
Acteur(s) :Robert Downey Jr., Chris Evans, Mark Ruffalo
Genre :Action,Fantastique,Aventure,
Année de sortie :2019-04-24
Titre Original :Avengers: Endgame
Note spectateur : - 4.3/5



Thanos ayant anéanti la moitié de l'univers, les Avengers restants resserrent les rangs dans ce vingt-deuxième film des Studios Marvel, grande conclusion d'un des chapitres de l'Univers Cinématographique Marvel. NFO Show/hide text NFO: General Unique ID : 173010651059423626214840312379289416958 (0x8228A3ACEBFC295D81704543B3C0B4FE) Complete name : Avengers.Endgame.2019.MULTi.TRUEFRENCH.1080p.3D.BluRay.TOP-BOTTOM.x264.EAC3-ACOOL.WwW.Zone-Telechargement.Net.mkv Format : Matroska Format version : Version 4 / Version 2 File size : 27.7 GiB Duration : 3 h 1 min Overall bit rate mode : Variable Overall bit rate : 21.9 Mb/s Movie name : Avengers: Endgame Encoded date : UTC 2019-08-22 20:13:43 Writing application : mkvmerge v25.0.0 ('Prog Noir') 64-bit Writing library : libebml v1.3.6 + libmatroska v1.4.9 Video ID : 1 Format : AVC Format/Info : Advanced Video Codec Format profile : [email protected] Format settings : CABAC / 3 Ref Frames Format settings, CABAC : Yes Format settings, ReFrames : 3 frames Codec ID : V_MPEG4/ISO/AVC Duration : 3 h 1 min Bit rate : 16.0 Mb/s Width : 1 920 pixels Height : 1 080 pixels Display aspect ratio : 16:9 Frame rate mode : Constant Frame rate : 23.976 (24000/1001) FPS Color space : YUV Chroma subsampling : 4:2:0 Bit depth : 8 bits Scan type : Progressive Bits/(Pixel*Frame) : 0.322 Stream size : 20.4 GiB (74%) Writing library : x264 core 148 Encoding settings : cabac=1 / ref=3 / deblock=1:-1:-1 / analyse=0x3:0 / me=hex / subme=5 / psy=1 / psy_rd=1.00:0.00 / mixed_ref=0 / me_range=16 / chroma_me=1 / trellis=1 / 8x8dct=1 / cqm=0 / deadzone=21,11 / fast_pskip=0 / chroma_qp_offset=0 / threads=24 / lookahead_threads=6 / sliced_threads=0 / nr=0 / decimate=1 / interlaced=0 / bluray_compat=0 / constrained_intra=0 / bframes=2 / b_pyramid=0 / b_adapt=1 / b_bias=0 / direct=1 / weightb=0 / open_gop=0 / weightp=0 / keyint=24 / keyint_min=2 / scenecut=40 / intra_refresh=0 / rc=abr / mbtree=0 / bitrate=16000 / ratetol=1.0 / qcomp=0.60 / qpmin=0 / qpmax=69 / qpstep=4 / ip_ratio=1.40 / pb_ratio=1.30 / aq=1:1.00 Default : Yes Forced : No Color range : Limited Color primaries : BT.709 Transfer characteristics : BT.709 Matrix coefficients : BT.709 Audio #1 ID : 2 Format : E-AC-3 Format/Info : Enhanced Audio Coding 3 Codec ID : A_EAC3 Duration : 3 h 1 min Bit rate mode : Constant Bit rate : 500 b/s Channel(s) : 8 channels Channel(s)_Original : 6 channels Channel positions : Front: L C R, Side: L R, LFE Sampling rate : 48.0 kHz Frame rate : 187.500 FPS (256 SPF) Compression mode : Lossy Stream size : 1.13 GiB (4%) Title : VFF EAC3 7.1 500b/s Language : French Service kind : Complete Main Default : Yes Forced : No Audio #2 ID : 3 Format : TrueHD Format profile : TrueHD+Atmos / TrueHD Codec ID : A_TRUEHD Duration : 3 h 1 min Bit rate mode : Variable Bit rate : 4 777 kb/s Maximum bit rate : 8 430 kb/s Channel(s) : Object Based / 8 channels Channel positions : Object Based / Front: L C R, Side: L R, Back: L R, LFE Sampling rate : / 48.0 kHz Frame rate : 1 200.000 FPS (40 SPF) Compression mode : Lossless Stream size : 6.05 GiB (22%) Title : English TrueHD Atmos 7.1 4477kb/s Language : English Default : No Forced : No Text #1 ID : 4 Format : UTF-8 Codec ID : S_TEXT/UTF8 Codec ID/Info : UTF-8 Plain Text Duration : 2 h 37 min Bit rate : 0 b/s Count of elements : 49 Stream size : 1.08 KiB (0%) Title : FR Forced Language : French Default : Yes Forced : Yes Text #2 ID : 5 Format : UTF-8 Codec ID : S_TEXT/UTF8 Codec ID/Info : UTF-8 Plain Text Duration : 2 h 52 min Bit rate : 47 b/s Count of elements : 2223 Stream size : 59.6 KiB (0%) Title : FULL FR Language : French Default : No Forced : No Menu 00:00:00.000 : en:Chapter 01 00:08:05.902 : en:Chapter 02 00:20:01.700 : en:Chapter 03 00:26:15.282 : en:Chapter 04 00:36:57.173 : en:Chapter 05 00:43:20.598 : en:Chapter 06 00:48:44.171 : en:Chapter 07 00:57:36.744 : en:Chapter 08 01:07:12.611 : en:Chapter 09 01:16:02.516 : en:Chapter 10 01:26:25.430 : en:Chapter 11 01:32:20.117 : en:Chapter 12 01:38:55.804 : en:Chapter 13 01:48:12.360 : en:Chapter 14 01:57:26.914 : en:Chapter 15 02:05:00.242 : en:Chapter 16 02:15:06.431 : en:Chapter 17 02:25:50.450 : en:Chapter 18 02:34:37.935 : en:Chapter 19 02:43:03.899 : en:Chapter 20 02:49:05.343 : en:Chapter 21




Qualité/Format/Langue : Blu-Ray 3D MULTI





Lien de Téléchargement ULTRA RAPIDE (ANONYME&RAPIDE)



Liens De Téléchargement :




Publié : 23-08-2019, 11:51


Commentaires:


Information
Vous devez vous connectez ou vous inscrire pour participer aux commentaires.
Il n'y a pas encore de commentaire sur cette fiche.

Zone-Telechargement n'héberge aucun fichier. La loi francaise vous autorise à telecharger un fichier seulement si vous en possedez l'original. Ni Zone-Telechargement, ni nos hebergeurs, ni personne ne pourront êtres tenu responsables d'une mauvaise utilisation de ce site.